中國高清論壇

 找回密碼
 立即注冊
亞博
搜索
查看: 843|回復: 198
打印 上一主題 下一主題

[冒險片] 篷車之旅 Roads.2019.1080p.WEB-DL.DD5.1.H264-FGT 3.25 GiB

  [復制鏈接]

超級版主

高清幣
17321
金錢
40139
鮮花
0
在線時間
12257 小時
最后登錄
2019-10-14
跳轉到指定樓層
樓主
發表于 5 天前 | 只看該作者 回帖獎勵 |倒序瀏覽 |閱讀模式



◎譯  名 篷車之旅
◎片  名 Roads/Caravan
◎年  代 2018
◎國  家 德國/法國
◎類  別 冒險/喜劇/劇情
◎語  言 英語
◎IMDb評分 6.7/10 from 195 users
◎IMDb鏈接 https://www.imdb.com/title/tt7303530/
◎片  長 1 h 24 min
◎導  演 塞巴斯蒂安·席佩爾 Sebastian Schipper
◎主  演 菲恩·懷特海德 Fionn Whitehead
       斯特凡·巴克 Stéphane Bak
       本·卓別林 Ben Chaplin
       莫里茲·布雷多 Moritz Bleibtreu


◎簡  介

  劇情講述一個來自剛果的年輕人William(Stéphane Bak飾)嘗試突破歐洲邊界,來尋找他的兄弟,偶然遇見了狂野又機靈的Gyllen(懷特海德飾),后者剛剛開著繼父的野營車從家庭摩洛哥之旅中溜了出來。兩人開啟了一段不可預測、激動人心、不可阻擋、充滿混亂與幽默的旅程,只有生活在邊緣的青少年才能點燃如此激情之火。
  1. Video
  2. ID : 1
  3. Format : AVC
  4. Format/Info : Advanced Video Codec
  5. Format profile : [email protected]
  6. Format settings : CABAC / 5 Ref Frames
  7. Format settings, CABAC : Yes
  8. Format settings, Reference frames : 5 frames
  9. Codec ID : V_MPEG4/ISO/AVC
  10. Duration : 1 h 35 min
  11. Bit rate : 4 507 kb/s
  12. Width : 1 912 pixels
  13. Height : 792 pixels
  14. Display aspect ratio : 2.40:1
  15. Frame rate mode : Constant
  16. Frame rate : 25.000 FPS
  17. Color space : YUV
  18. Chroma subsampling : 4:2:0
  19. Bit depth : 8 bits
  20. Scan type : Progressive
  21. Bits/(Pixel*Frame) : 0.119
  22. Stream size : 2.99 GiB (92%)
  23. Title : Roads.2019.1080p.WEB-DL.DD5.1.H264-FGT
  24. Language : English
  25. Default : Yes
  26. Forced : No
  27. Color range : Limited
  28. Color primaries : BT.709
  29. Transfer characteristics : BT.709
  30. Matrix coefficients : BT.709

  31. Audio
  32. ID : 2
  33. Format : AC-3
  34. Format/Info : Audio Coding 3
  35. Commercial name : Dolby Digital
  36. Codec ID : A_AC3
  37. Duration : 1 h 35 min
  38. Bit rate mode : Constant
  39. Bit rate : 384 kb/s
  40. Channel(s) : 6 channels
  41. Channel layout : L R C LFE Ls Rs
  42. Sampling rate : 48.0 kHz
  43. Frame rate : 31.250 FPS (1536 SPF)
  44. Bit depth : 16 bits
  45. Compression mode : Lossy
  46. Stream size : 261 MiB (8%)
  47. Title : Roads.2019.1080p.WEB-DL.DD5.1.H264-FGT
  48. Language : English
  49. Service kind : Complete Main
  50. Default : Yes
  51. Forced : No

  52. Menu
  53. 00:00:00.000 : en:1
  54. 00:06:42.000 : en:2
  55. 00:17:13.000 : en:3
  56. 00:27:44.000 : en:4
  57. 00:37:57.000 : en:5
  58. 00:49:56.000 : en:6
  59. 01:02:41.000 : en:7
  60. 01:16:03.000 : en:8
  61. 01:28:02.000 : en:9
復制代碼








游客,如果您要查看本帖隱藏內容請回復,您還可以免扣高清幣免回復下載:http://www.ghpgnr.live/plugin.php?id=wyfaka_url:url
回復

使用道具 舉報

永恒神話

高清幣
82
金錢
19000
鮮花
0
在線時間
1322 小時
最后登錄
2019-10-14
推薦
發表于 5 天前 | 只看該作者

既然你誠信誠意的推薦了,那我就勉為其難的看看吧!中國高清論壇不走平凡路。
回復 支持 1 反對 0

使用道具 舉報

永恒神話

高清幣
82
金錢
19000
鮮花
0
在線時間
1322 小時
最后登錄
2019-10-14
推薦
發表于 5 天前 | 只看該作者

樓主,大恩不言謝了!中國高清論壇是最棒的!
回復 支持 1 反對 0

使用道具 舉報

超級明星

高清幣
1136
金錢
7428
鮮花
0
在線時間
701 小時
最后登錄
2019-10-15
推薦
發表于 5 天前 | 只看該作者
樓主發貼辛苦了,謝謝樓主分享!我覺得中國高清論壇是注冊對了!
回復 支持 1 反對 0

使用道具 舉報

天王巨星

高清幣
53
金錢
1926
鮮花
0
在線時間
245 小時
最后登錄
2019-10-13
推薦
發表于 5 天前 | 只看該作者
樓主發貼辛苦了,謝謝樓主分享!我覺得中國高清論壇是注冊對了!
回復 支持 1 反對 0

使用道具 舉報

永恒神話

高清幣
13477
金錢
38352
鮮花
10
在線時間
2540 小時
最后登錄
2019-10-14
沙發
發表于 5 天前 | 只看該作者

既然你誠信誠意的推薦了,那我就勉為其難的看看吧!中國高清論壇不走平凡路。
回復 支持 反對

使用道具 舉報

金雞獎主角

高清幣
375
金錢
5090
鮮花
0
在線時間
640 小時
最后登錄
2019-10-13
板凳
發表于 5 天前 | 只看該作者

樓主太厲害了!樓主,電影應該很好看我覺得中國高清論壇真是個好地方!
回復 支持 反對

使用道具 舉報

永恒神話

高清幣
9829
金錢
13542
鮮花
0
在線時間
1292 小時
最后登錄
2019-10-14
地板
發表于 5 天前 | 只看該作者
樓主發貼辛苦了,謝謝樓主分享!我覺得中國高清論壇是注冊對了!
回復 支持 反對

使用道具 舉報

知名藝人

高清幣
0
金錢
136
鮮花
0
在線時間
19 小時
最后登錄
2019-10-11
5#
發表于 5 天前 | 只看該作者
據說很好看,下來看看,謝謝分享!
回復 支持 反對

使用道具 舉報

知名藝人

高清幣
0
金錢
136
鮮花
0
在線時間
19 小時
最后登錄
2019-10-11
6#
發表于 5 天前 | 只看該作者
據說很好看,下來看看,謝謝分享!
回復 支持 反對

使用道具 舉報

知名藝人

高清幣
0
金錢
136
鮮花
0
在線時間
19 小時
最后登錄
2019-10-11
7#
發表于 5 天前 | 只看該作者
據說很好看,下來看看,謝謝分享!
回復 支持 反對

使用道具 舉報

人氣偶像

高清幣
37
金錢
1456
鮮花
0
在線時間
305 小時
最后登錄
2019-10-14
8#
發表于 5 天前 | 只看該作者

這東西我收了!謝謝樓主!中國高清論壇真好!
回復 支持 反對

使用道具 舉報

永恒神話

高清幣
5060
金錢
12027
鮮花
0
在線時間
833 小時
最后登錄
2019-10-14
9#
發表于 5 天前 | 只看該作者
樓主發貼辛苦了,謝謝樓主分享!我覺得中國高清論壇是注冊對了!
回復 支持 反對

使用道具 舉報

金雞獎主角

高清幣
4
金錢
5324
鮮花
0
在線時間
1041 小時
最后登錄
2019-10-14
10#
發表于 5 天前 | 只看該作者

我看不錯噢 謝謝樓主!中國高清論壇越來越好!
回復 支持 反對

使用道具 舉報

懶得打字嘛,點擊右側快捷回復 【右側內容,后臺自定義】
您需要登錄后才可以回帖 登錄 | 立即注冊

本版積分規則

QQ|手機版|小黑屋|中國高清論壇 ( 黔ICP備16007815號-1 )

GMT+8, 2019-10-15 07:07 , Processed in 0.060422 second(s), 25 queries .

Powered by Discuz! X3.4

© 2001-2017 Comsenz Inc.

快速回復 返回頂部 返回列表
优乐彩