中國高清論壇

 找回密碼
 立即注冊
亞博
搜索
查看: 913|回復: 256
打印 上一主題 下一主題

[動作片] 惡人傳 The.Gangster.the.Cop.the.Devil.2019.KOREAN.1080p.BluRay.x264.DTS-PbK

  [復制鏈接]

超級版主

高清幣
17321
金錢
40139
鮮花
0
在線時間
12257 小時
最后登錄
2019-10-14
跳轉到指定樓層
樓主
發表于 5 天前 | 只看該作者 回帖獎勵 |倒序瀏覽 |閱讀模式



◎譯  名 惡人傳/惡霸.魔警.殺人狂(港)/極惡對決(臺)
◎片  名 The Gangster, The Cop, The Devil
◎年  代 2019
◎國  家 韓國
◎類  別 劇情/動作/犯罪
◎語  言 韓語
◎IMDb評分 6.9/10 from 1549 users
◎IMDB鏈接 http://www.imdb.com/title/tt10208198
◎片  長 1 h 49 min
◎導  演 李元泰 Won-tae Lee
◎主  演 馬東錫 Tong-Seok Ma
      金武烈 Moo-yeol Kim
      金成圭 Seong-gyoo Kim
      劉承睦 Yoo Seung-Mok
      崔民哲 Min-cheol Choi
      金胤成 Kim Yoon-seong
      許棟元 Heo Dong-won
      吳熙俊 Hee-joon Oh
      楊志洙 Ji-soo Yang
      金桀 Kim Kyoul
      李恩泉 Eun-saem Lee
      劉在明 Jae-myung Yoo




◎簡  介

  罪犯頭目張東洙(Don Lee)被一名神秘莫測的連環殺手暴力襲擊之后幸存,與當地警探鄭泰碩(Kim Moo Yul)形成了一種奇妙的搭檔關系,聯手捕捉被稱為“K”的虐待狂殺手”。

  1. Video
  2. ID : 1
  3. Format : AVC
  4. Format/Info : Advanced Video Codec
  5. Format profile : [email protected]
  6. Format settings : CABAC / 5 Ref Frames
  7. Format settings, CABAC : Yes
  8. Format settings, Reference frames : 5 frames
  9. Codec ID : V_MPEG4/ISO/AVC
  10. Duration : 1 h 49 min
  11. Bit rate : 12.0 Mb/s
  12. Width : 1 920 pixels
  13. Height : 800 pixels
  14. Display aspect ratio : 2.40:1
  15. Frame rate mode : Constant
  16. Frame rate : 24.000 FPS
  17. Color space : YUV
  18. Chroma subsampling : 4:2:0
  19. Bit depth : 8 bits
  20. Scan type : Progressive
  21. Bits/(Pixel*Frame) : 0.326
  22. Stream size : 9.21 GiB (89%)
  23. Writing library : x264 core 155 r2901 7d0ff22
  24. Encoding settings : cabac=1 / ref=5 / deblock=1:-3:-3 / analyse=0x3:0x133 / me=umh / subme=11 / psy=1 / psy_rd=1.00:0.00 / mixed_ref=1 / me_range=48 / chroma_me=1 / trellis=2 / 8x8dct=1 / cqm=0 / deadzone=21,11 / fast_pskip=1 / chroma_qp_offset=-2 / threads=18 / lookahead_threads=3 / sliced_threads=0 / nr=0 / decimate=1 / interlaced=0 / bluray_compat=0 / constrained_intra=0 / bframes=8 / b_pyramid=2 / b_adapt=2 / b_bias=0 / direct=3 / weightb=1 / open_gop=0 / weightp=2 / keyint=240 / keyint_min=24 / scenecut=40 / intra_refresh=0 / rc=2pass / mbtree=0 / bitrate=12000 / ratetol=1.0 / qcomp=0.60 / qpmin=0 / qpmax=69 / qpstep=4 / cplxblur=20.0 / qblur=0.5 / ip_ratio=1.30 / pb_ratio=1.20 / aq=3:0.80
  25. Language : Korean
  26. Default : Yes
  27. Forced : No
  28. Color range : Limited
  29. Color primaries : BT.709
  30. Transfer characteristics : BT.709
  31. Matrix coefficients : BT.709

  32. Audio
  33. ID : 2
  34. Format : DTS
  35. Format/Info : Digital Theater Systems
  36. Codec ID : A_DTS
  37. Duration : 1 h 49 min
  38. Bit rate mode : Constant
  39. Bit rate : 1 509 kb/s
  40. Channel(s) : 6 channels
  41. Channel layout : C L R Ls Rs LFE
  42. Sampling rate : 48.0 kHz
  43. Frame rate : 93.750 FPS (512 SPF)
  44. Bit depth : 16 bits
  45. Compression mode : Lossy
  46. Stream size : 1.16 GiB (11%)
  47. Language : Korean
  48. Default : Yes
  49. Forced : No

  50. Text
  51. ID : 3
  52. Format : UTF-8
  53. Codec ID : S_TEXT/UTF8
  54. Codec ID/Info : UTF-8 Plain Text
  55. Duration : 1 h 44 min
  56. Bit rate : 52 b/s
  57. Count of elements : 1323
  58. Stream size : 40.4 KiB (0%)
  59. Language : English
  60. Default : No
  61. Forced : No
復制代碼







游客,如果您要查看本帖隱藏內容請回復,您還可以免扣高清幣免回復下載:http://www.ghpgnr.live/plugin.php?id=wyfaka_url:url
回復

使用道具 舉報

superstar

高清幣
6057
金錢
8755
鮮花
0
在線時間
466 小時
最后登錄
2019-10-11
推薦
發表于 5 天前 | 只看該作者

我看不錯噢 謝謝樓主!中國高清論壇越來越好!
回復 支持 1 反對 0

使用道具 舉報

人氣偶像

高清幣
0
金錢
1100
鮮花
0
在線時間
246 小時
最后登錄
2019-10-15
推薦
發表于 5 天前 | 只看該作者
發貼辛苦了,謝謝樓主分享!
回復 支持 1 反對 0

使用道具 舉報

天王巨星

高清幣
2
金錢
2927
鮮花
0
在線時間
567 小時
最后登錄
2019-10-14
推薦
發表于 5 天前 | 只看該作者
樓主發貼辛苦了,謝謝樓主分享!我覺得中國高清論壇是注冊對了!
回復 支持 1 反對 0

使用道具 舉報

超級明星

高清幣
1136
金錢
7428
鮮花
0
在線時間
701 小時
最后登錄
2019-10-15
推薦
發表于 5 天前 | 只看該作者

這個帖子不回對不起自己!我想我是一天也不能離開中國高清論壇
回復 支持 1 反對 0

使用道具 舉報

永恒神話

高清幣
11279
金錢
20856
鮮花
0
在線時間
1865 小時
最后登錄
2019-10-14
沙發
發表于 5 天前 | 只看該作者
樓主發貼辛苦了,謝謝樓主分享!我覺得中國高清論壇是注冊對了!
回復 支持 反對

使用道具 舉報

永恒神話

高清幣
40335
金錢
80219
鮮花
0
在線時間
6884 小時
最后登錄
2019-10-15
板凳
發表于 5 天前 | 只看該作者

樓主太厲害了!樓主,電影應該很好看我覺得中國高清論壇真是個好地方!
回復 支持 反對

使用道具 舉報

天王巨星

高清幣
575
金錢
2134
鮮花
0
在線時間
329 小時
最后登錄
2019-10-14
地板
發表于 5 天前 | 只看該作者
樓主發貼辛苦了,謝謝樓主分享
回復 支持 反對

使用道具 舉報

影壇巨星

高清幣
302
金錢
10988
鮮花
0
在線時間
1748 小時
最后登錄
2019-10-15
6#
發表于 5 天前 | 只看該作者

這個帖子不回對不起自己!我想我是一天也不能離開中國高清論壇
回復 支持 反對

使用道具 舉報

人氣偶像

高清幣
244
金錢
404
鮮花
0
在線時間
57 小時
最后登錄
2019-10-14
7#
發表于 5 天前 | 只看該作者
謝謝樓主分享!
回復 支持 反對

使用道具 舉報

人氣偶像

高清幣
143
金錢
1357
鮮花
0
在線時間
111 小時
最后登錄
2019-10-13
8#
發表于 5 天前 | 只看該作者
謝謝樓主,論壇給力
回復 支持 反對

使用道具 舉報

永恒神話

高清幣
19325
金錢
33235
鮮花
0
在線時間
2619 小時
最后登錄
2019-10-14
9#
發表于 5 天前 | 只看該作者
謝謝發片,辛苦了
回復 支持 反對

使用道具 舉報

好萊塢明星

高清幣
153
金錢
6831
鮮花
0
在線時間
1107 小時
最后登錄
2019-10-14
10#
發表于 5 天前 | 只看該作者
樓主發貼辛苦了,謝謝樓主分享!我覺得中國高清論壇是注冊對了!
回復 支持 反對

使用道具 舉報

懶得打字嘛,點擊右側快捷回復 【右側內容,后臺自定義】
您需要登錄后才可以回帖 登錄 | 立即注冊

本版積分規則

QQ|手機版|小黑屋|中國高清論壇 ( 黔ICP備16007815號-1 )

GMT+8, 2019-10-15 07:14 , Processed in 0.050101 second(s), 25 queries .

Powered by Discuz! X3.4

© 2001-2017 Comsenz Inc.

快速回復 返回頂部 返回列表
优乐彩