中國高清論壇

 找回密碼
 立即注冊
亞博
搜索
查看: 1094|回復: 213
打印 上一主題 下一主題

[動畫片] 斯塔比中士:一個美國英雄 S.S.A.A.H.2018.MULTi.1080p.BluRay.x264.AC3-EXTREME

  [復制鏈接]

超級版主

高清幣
17321
金錢
40139
鮮花
0
在線時間
12257 小時
最后登錄
2019-10-14
跳轉到指定樓層
樓主
發表于 5 天前 | 只看該作者 回帖獎勵 |倒序瀏覽 |閱讀模式


◎譯  名 斯塔比中士:一個美國英雄
◎片  名 Sgt. Stubby: An American Hero
◎年  代 2018
◎國  家 美國/愛爾蘭/法國/加拿大/英國
◎類  別 動畫/戰爭/冒險
◎語  言 英語
◎IMDb評分 7.0/10 from 689 users
◎IMDb鏈接 https://www.imdb.com/title/tt5314190/
◎片  長 1 h 24 min
◎導  演 Richard Lannir
◎主  演 海倫娜·伯翰·卡特 Helena Bonham Carter
       羅根·勒曼 Logan Lerman
       杰拉爾·德帕迪約 Gérard Depardieu
       Christophe Lemoine


◎簡  介

  電影根據真實故事改編,講述流浪狗斯塔比被一名美國士兵救起,后來在一戰中成為一只英雄狗的故事。
  1. General
  2. Unique ID                      : 101072940661908251760935315862064289420 (0x4C09F0B76C25160DAC419B897AE1568C)
  3. Complete name                  : D:\迅雷下載\[ Torrent9.cz ] Sgt.Stubby.An.American.Hero.2018.MULTi.1080p.BluRay.x264.AC3-EXTREME.mkv
  4. Format                         : Matroska
  5. Format version                 : Version 4
  6. File size                      : 5.69 GiB
  7. Duration                       : 1 h 24 min
  8. Overall bit rate               : 9 635 kb/s
  9. Encoded date                   : UTC 2019-10-09 07:31:48
  10. Writing application            : mkvmerge v37.0.0 ('Leave It') 64-bit
  11. Writing library                : libebml v1.3.9 + libmatroska v1.5.2
  12. FileExtension_Invalid          : mkv mk3d mka mks

  13. Video
  14. ID                             : 3
  15. Format                         : AVC
  16. Format/Info                    : Advanced Video Codec
  17. Format profile                 : [email protected]
  18. Format settings                : CABAC / 4 Ref Frames
  19. Format settings, CABAC         : Yes
  20. Format settings, ReFrames      : 4 frames
  21. Codec ID                       : V_MPEG4/ISO/AVC
  22. Duration                       : 1 h 24 min
  23. Bit rate                       : 8 818 kb/s
  24. Width                          : 1 920 pixels
  25. Height                         : 1 040 pixels
  26. Display aspect ratio           : 1.85:1
  27. Frame rate mode                : Constant
  28. Frame rate                     : 23.976 (24000/1001) FPS
  29. Color space                    : YUV
  30. Chroma subsampling             : 4:2:0
  31. Bit depth                      : 8 bits
  32. Scan type                      : Progressive
  33. Bits/(Pixel*Frame)             : 0.184
  34. Stream size                    : 5.09 GiB (89%)
  35. Writing library                : x264 core 157 r2935 545de2f
  36. Encoding settings              : cabac=1 / ref=4 / deblock=1:-3:-3 / analyse=0x3:0x113 / me=umh / subme=8 / psy=1 / psy_rd=1.00:0.00 / mixed_ref=1 / me_range=32 / chroma_me=1 / trellis=2 / 8x8dct=1 / cqm=0 / deadzone=21,11 / fast_pskip=1 / chroma_qp_offset=-2 / threads=32 / lookahead_threads=5 / sliced_threads=0 / nr=0 / decimate=1 / interlaced=0 / bluray_compat=0 / constrained_intra=0 / bframes=3 / b_pyramid=2 / b_adapt=2 / b_bias=0 / direct=3 / weightb=1 / open_gop=0 / weightp=2 / keyint=240 / keyint_min=24 / scenecut=40 / intra_refresh=0 / rc_lookahead=50 / rc=2pass / mbtree=1 / bitrate=8818 / ratetol=1.0 / qcomp=0.60 / qpmin=0 / qpmax=69 / qpstep=4 / cplxblur=20.0 / qblur=0.5 / ip_ratio=1.40 / aq=3:0.80
  37. Default                        : Yes
  38. Forced                         : No

  39. Audio #1
  40. ID                             : 1
  41. Format                         : AC-3
  42. Format/Info                    : Audio Coding 3
  43. Commercial name                : Dolby Digital
  44. Codec ID                       : A_AC3
  45. Duration                       : 1 h 24 min
  46. Bit rate mode                  : Constant
  47. Bit rate                       : 384 kb/s
  48. Channel(s)                     : 6 channels
  49. Channel layout                 : L R C LFE Ls Rs
  50. Sampling rate                  : 48.0 kHz
  51. Frame rate                     : 31.250 FPS (1536 SPF)
  52. Bit depth                      : 16 bits
  53. Compression mode               : Lossy
  54. Delay relative to video        : 24 ms
  55. Stream size                    : 232 MiB (4%)
  56. Language                       : French
  57. Service kind                   : Complete Main
  58. Default                        : Yes
  59. Forced                         : No

  60. Audio #2
  61. ID                             : 4
  62. Format                         : AC-3
  63. Format/Info                    : Audio Coding 3
  64. Commercial name                : Dolby Digital
  65. Codec ID                       : A_AC3
  66. Duration                       : 1 h 24 min
  67. Bit rate mode                  : Constant
  68. Bit rate                       : 448 kb/s
  69. Channel(s)                     : 6 channels
  70. Channel layout                 : L R C LFE Ls Rs
  71. Sampling rate                  : 48.0 kHz
  72. Frame rate                     : 31.250 FPS (1536 SPF)
  73. Bit depth                      : 16 bits
  74. Compression mode               : Lossy
  75. Stream size                    : 271 MiB (5%)
  76. Language                       : English
  77. Service kind                   : Complete Main
  78. Default                        : No
  79. Forced                         : No

  80. Text
  81. ID                             : 2
  82. Format                         : UTF-8
  83. Codec ID                       : S_TEXT/UTF8
  84. Codec ID/Info                  : UTF-8 Plain Text
  85. Title                          : French
  86. Language                       : French
  87. Default                        : No
  88. Forced                         : No

  89. Menu
  90. 00:00:00.000                   : en:Chapter 01
  91. 00:03:45.308                   : en:Chapter 02
  92. 00:07:30.951                   : en:Chapter 03
  93. 00:10:39.514                   : en:Chapter 04
  94. 00:12:15.109                   : en:Chapter 05
  95. 00:14:34.207                   : en:Chapter 06
  96. 00:15:55.371                   : en:Chapter 07
  97. 00:18:49.170                   : en:Chapter 08
  98. 00:20:47.580                   : en:Chapter 09
  99. 00:22:40.192                   : en:Chapter 10
  100. 00:24:16.163                   : en:Chapter 11
  101. 00:26:37.096                   : en:Chapter 12
  102. 00:28:19.448                   : en:Chapter 13
  103. 00:33:44.356                   : en:Chapter 14
  104. 00:39:48.803                   : en:Chapter 15
  105. 00:44:43.347                   : en:Chapter 16
  106. 00:46:31.664                   : en:Chapter 17
  107. 00:48:41.293                   : en:Chapter 18
  108. 00:54:26.430                   : en:Chapter 19
  109. 00:57:13.597                   : en:Chapter 20
  110. 01:01:38.278                   : en:Chapter 21
  111. 01:03:10.495                   : en:Chapter 22
  112. 01:05:59.456                   : en:Chapter 23
  113. 01:07:13.446                   : en:Chapter 24
  114. 01:08:19.596                   : en:Chapter 25
  115. 01:09:34.837                   : en:Chapter 26
  116. 01:10:19.966                   : en:Chapter 27
  117. 01:11:23.821                   : en:Chapter 28
  118. 01:15:26.480                   : en:Chapter 29
  119. 01:17:51.000                   : en:Chapter 30

復制代碼


游客,如果您要查看本帖隱藏內容請回復,您還可以免扣高清幣免回復下載:http://www.ghpgnr.live/plugin.php?id=wyfaka_url:url

回復

使用道具 舉報

超級明星

高清幣
1136
金錢
7428
鮮花
0
在線時間
701 小時
最后登錄
2019-10-15
推薦
發表于 5 天前 | 只看該作者

樓主太厲害了!樓主,電影應該很好看我覺得中國高清論壇真是個好地方!
回復 支持 1 反對 0

使用道具 舉報

永恒神話

高清幣
29
金錢
21915
鮮花
0
在線時間
1277 小時
最后登錄
2019-10-14
推薦
發表于 5 天前 | 只看該作者
樓主發貼辛苦了,謝謝樓主分享!我覺得中國高清論壇是注冊對了!
回復 支持 1 反對 0

使用道具 舉報

金雞獎主角

高清幣
131
金錢
4928
鮮花
0
在線時間
588 小時
最后登錄
2019-10-12
推薦
發表于 5 天前 | 只看該作者
樓主發貼辛苦了,謝謝樓主分享!我覺得中國高清論壇是注冊對了!
回復 支持 1 反對 0

使用道具 舉報

金雞獎主角

高清幣
104
金錢
3292
鮮花
0
在線時間
803 小時
最后登錄
2019-10-14
沙發
發表于 5 天前 | 只看該作者
樓主發貼辛苦了,謝謝樓主分享!我覺得中國高清論壇是注冊對了!
回復 支持 反對

使用道具 舉報

人氣偶像

高清幣
87
金錢
621
鮮花
0
在線時間
141 小時
最后登錄
2019-10-15
板凳
發表于 5 天前 | 只看該作者
樓主發貼辛苦了,謝謝樓主分享!我覺得中國高清論壇是注冊對了!
回復 支持 反對

使用道具 舉報

永恒神話

高清幣
40335
金錢
80219
鮮花
0
在線時間
6884 小時
最后登錄
2019-10-15
地板
發表于 5 天前 | 只看該作者

樓主太厲害了!樓主,電影應該很好看我覺得中國高清論壇真是個好地方!
回復 支持 反對

使用道具 舉報

金雞獎主角

高清幣
924
金錢
4528
鮮花
0
在線時間
1284 小時
最后登錄
2019-10-12
5#
發表于 5 天前 | 只看該作者
感謝樓主,每天都來看看有什么。
回復 支持 反對

使用道具 舉報

superstar

高清幣
6057
金錢
8755
鮮花
0
在線時間
466 小時
最后登錄
2019-10-11
6#
發表于 5 天前 | 只看該作者

我看不錯噢 謝謝樓主!中國高清論壇越來越好!
回復 支持 反對

使用道具 舉報

人氣偶像

高清幣
143
金錢
1357
鮮花
0
在線時間
111 小時
最后登錄
2019-10-13
7#
發表于 5 天前 | 只看該作者
謝謝樓主,論壇給力
回復 支持 反對

使用道具 舉報

永恒神話

高清幣
19325
金錢
33235
鮮花
0
在線時間
2619 小時
最后登錄
2019-10-14
8#
發表于 5 天前 | 只看該作者
謝謝發片,辛苦了
回復 支持 反對

使用道具 舉報

人氣偶像

高清幣
244
金錢
404
鮮花
0
在線時間
57 小時
最后登錄
2019-10-14
9#
發表于 5 天前 | 只看該作者
謝謝樓主分享!
回復 支持 反對

使用道具 舉報

superstar

高清幣
1606
金錢
13800
鮮花
0
在線時間
2199 小時
最后登錄
2019-10-14
10#
發表于 5 天前 | 只看該作者
樓主發貼辛苦了,謝謝樓主分享!我覺得中國高清論壇是注冊對了!
回復 支持 反對

使用道具 舉報

懶得打字嘛,點擊右側快捷回復 【右側內容,后臺自定義】
您需要登錄后才可以回帖 登錄 | 立即注冊

本版積分規則

QQ|手機版|小黑屋|中國高清論壇 ( 黔ICP備16007815號-1 )

GMT+8, 2019-10-15 07:13 , Processed in 0.049433 second(s), 25 queries .

Powered by Discuz! X3.4

© 2001-2017 Comsenz Inc.

快速回復 返回頂部 返回列表
优乐彩