中國高清論壇

 找回密碼
 立即注冊
亞博
搜索
查看: 458|回復: 110
打印 上一主題 下一主題

[劇情片] 約翰·多諾萬的死與生 T.D.A.Li.o.J.F.D.2018.MULTI.1080p.WEB.H264-EXTREME 4.66 GiB

  [復制鏈接]

超級版主

高清幣
17321
金錢
40139
鮮花
0
在線時間
12257 小時
最后登錄
2019-10-14
跳轉到指定樓層
樓主
發表于 5 天前 | 只看該作者 回帖獎勵 |倒序瀏覽 |閱讀模式





◎譯  名 約翰·多諾萬的死與生/多諾萬先生的生與死/約翰·F·多諾萬的生與死 /約翰·唐納文的生與死
◎片  名 The Death And Life of John F. Donovan
◎年  代 2018
◎國  家 加拿大/英國
◎類  別 劇情
◎語  言 英語
◎IMDb評分 6.3/10 from 1334 users
◎IMDb鏈接 http://www.imdb.com/title/tt4042818
◎片  長 2 h 3 min
◎導  演 澤維爾·多蘭 Xavier Dolan
◎主  演  基特·哈靈頓 Kit Harington
      雅各布·特倫布萊 Jacob Tremblay
      蘇珊·薩蘭登 Susan Sarandon
      娜塔莉·波特曼 Natalie Portman
      凱西·貝茨 Kathy Bates
      本·施耐澤 Ben Schnetzer
      埃米麗·漢普希爾 Emily Hampshire
      邁克爾·剛本 Michael Gambon
      坦迪·牛頓 Thandie Newton
      貝拉·索恩 Bella Thorne
      克里斯·澤爾卡 Chris Zylka
      莎拉·加頓 Sarah Gadon
      杰瑞德·基蘇 Jared Keeso
      阿里?米倫 Ari Millen
      阿瑪拉·卡蘭 Amara Karan


◎簡  介


  故事講述美國電視明星多諾萬(基特·哈靈頓飾)偶然與一位遠在英國的年輕人結為筆友。隨著二人關系被媒體曝光,多諾萬的生活也發生了翻天覆地的變化。

  1. General
  2. Unique ID                      : 230251966861709138930293333357055973278 (0xAD38EA701E7FFEA989DD4E851CA0179E)
  3. Complete name                  : D:\迅雷下載\[ Torrent9.cz ] The.Death.And.Life.of.John.F.Donovan.2018.MULTI.1080p.WEB.H264-EXTREME.mkv
  4. Format                         : Matroska
  5. Format version                 : Version 4
  6. File size                      : 4.66 GiB
  7. Duration                       : 2 h 3 min
  8. Overall bit rate               : 5 399 kb/s
  9. Encoded date                   : UTC 2019-10-10 06:13:15
  10. Writing application            : mkvmerge v37.0.0 ('Leave It') 64-bit
  11. Writing library                : libebml v1.3.9 + libmatroska v1.5.2
  12. FileExtension_Invalid          : mkv mk3d mka mks

  13. Video
  14. ID                             : 5
  15. Format                         : AVC
  16. Format/Info                    : Advanced Video Codec
  17. Format profile                 : [email protected]
  18. Format settings                : CABAC / 5 Ref Frames
  19. Format settings, CABAC         : Yes
  20. Format settings, ReFrames      : 5 frames
  21. Codec ID                       : V_MPEG4/ISO/AVC
  22. Duration                       : 2 h 3 min
  23. Bit rate                       : 4 629 kb/s
  24. Width                          : 1 912 pixels
  25. Height                         : 800 pixels
  26. Display aspect ratio           : 2.40:1
  27. Frame rate mode                : Constant
  28. Frame rate                     : 24.000 FPS
  29. Color space                    : YUV
  30. Chroma subsampling             : 4:2:0
  31. Bit depth                      : 8 bits
  32. Scan type                      : Progressive
  33. Bits/(Pixel*Frame)             : 0.126
  34. Stream size                    : 3.99 GiB (86%)
  35. Language                       : English
  36. Default                        : Yes
  37. Forced                         : No
  38. Color range                    : Limited
  39. Color primaries                : BT.709
  40. Transfer characteristics       : BT.709
  41. Matrix coefficients            : BT.709

  42. Audio #1
  43. ID                             : 3
  44. Format                         : AC-3
  45. Format/Info                    : Audio Coding 3
  46. Commercial name                : Dolby Digital
  47. Codec ID                       : A_AC3
  48. Duration                       : 2 h 3 min
  49. Bit rate mode                  : Constant
  50. Bit rate                       : 384 kb/s
  51. Channel(s)                     : 6 channels
  52. Channel layout                 : L R C LFE Ls Rs
  53. Sampling rate                  : 48.0 kHz
  54. Frame rate                     : 31.250 FPS (1536 SPF)
  55. Bit depth                      : 16 bits
  56. Compression mode               : Lossy
  57. Delay relative to video        : -42 ms
  58. Stream size                    : 339 MiB (7%)
  59. Language                       : French
  60. Service kind                   : Complete Main
  61. Default                        : Yes
  62. Forced                         : No

  63. Audio #2
  64. ID                             : 4
  65. Format                         : AC-3
  66. Format/Info                    : Audio Coding 3
  67. Commercial name                : Dolby Digital
  68. Codec ID                       : A_AC3
  69. Duration                       : 2 h 3 min
  70. Bit rate mode                  : Constant
  71. Bit rate                       : 384 kb/s
  72. Channel(s)                     : 6 channels
  73. Channel layout                 : L R C LFE Ls Rs
  74. Sampling rate                  : 48.0 kHz
  75. Frame rate                     : 31.250 FPS (1536 SPF)
  76. Bit depth                      : 16 bits
  77. Compression mode               : Lossy
  78. Delay relative to video        : -42 ms
  79. Stream size                    : 339 MiB (7%)
  80. Language                       : English
  81. Service kind                   : Complete Main
  82. Default                        : No
  83. Forced                         : No

  84. Text #1
  85. ID                             : 1
  86. Format                         : UTF-8
  87. Codec ID                       : S_TEXT/UTF8
  88. Codec ID/Info                  : UTF-8 Plain Text
  89. Duration                       : 12 min 25 s
  90. Bit rate                       : 5 b/s
  91. Count of elements              : 14
  92. Stream size                    : 550 Bytes (0%)
  93. Title                          : Forced
  94. Language                       : French
  95. Default                        : Yes
  96. Forced                         : No

  97. Text #2
  98. ID                             : 2
  99. Format                         : UTF-8
  100. Codec ID                       : S_TEXT/UTF8
  101. Codec ID/Info                  : UTF-8 Plain Text
  102. Duration                       : 2 h 2 min
  103. Bit rate                       : 62 b/s
  104. Count of elements              : 1637
  105. Stream size                    : 55.9 KiB (0%)
  106. Title                          : French
  107. Language                       : French
  108. Default                        : No
  109. Forced                         : No

  110. Menu
  111. 00:00:00.000                   : en:Chapitre 1
  112. 00:13:08.291                   : en:Chapitre 2
  113. 00:23:19.999                   : en:Chapitre 3
  114. 00:32:39.956                   : en:Chapitre 4
  115. 00:39:21.831                   : en:Chapitre 5
  116. 00:49:21.539                   : en:Chapitre 6
  117. 01:01:06.497                   : en:Chapitre 7
  118. 01:09:51.912                   : en:Chapitre 8
  119. 01:19:52.328                   : en:Chapitre 9
  120. 01:31:44.285                   : en:Chapitre 10
  121. 01:42:08.992                   : en:Chapitre 11
  122. 01:49:39.408                   : en:Chapitre 12

復制代碼


游客,如果您要查看本帖隱藏內容請回復,您還可以免扣高清幣免回復下載:http://www.ghpgnr.live/plugin.php?id=wyfaka_url:url

回復

使用道具 舉報

金雞獎主角

高清幣
638
金錢
3123
鮮花
0
在線時間
451 小時
最后登錄
2019-10-13
推薦
發表于 5 天前 | 只看該作者
主發貼辛苦了,謝謝樓主分享!我覺得中國高清論壇是注冊對了!
回復 支持 1 反對 0

使用道具 舉報

永恒神話

高清幣
82
金錢
19000
鮮花
0
在線時間
1322 小時
最后登錄
2019-10-14
推薦
發表于 5 天前 | 只看該作者

這東西我收了!謝謝樓主!中國高清論壇真好!
回復 支持 1 反對 0

使用道具 舉報

永恒神話

高清幣
29
金錢
21915
鮮花
0
在線時間
1277 小時
最后登錄
2019-10-14
推薦
發表于 5 天前 | 只看該作者
樓主發貼辛苦了,謝謝樓主分享!我覺得中國高清論壇是注冊對了!
回復 支持 1 反對 0

使用道具 舉報

superstar

高清幣
4541
金錢
6697
鮮花
0
在線時間
957 小時
最后登錄
2019-10-13
沙發
發表于 5 天前 | 只看該作者
一直沒有字幕!!生肉啃不動!
回復 支持 反對

使用道具 舉報

人氣偶像

高清幣
87
金錢
621
鮮花
0
在線時間
141 小時
最后登錄
2019-10-15
板凳
發表于 5 天前 | 只看該作者
樓主發貼辛苦了,謝謝樓主分享!我覺得中國高清論壇是注冊對了!
回復 支持 反對

使用道具 舉報

永恒神話

高清幣
40335
金錢
80219
鮮花
0
在線時間
6884 小時
最后登錄
2019-10-15
地板
發表于 5 天前 | 只看該作者
樓主發貼辛苦了,謝謝樓主分享!我覺得中國高清論壇是注冊對了!
回復 支持 反對

使用道具 舉報

superstar

高清幣
6057
金錢
8755
鮮花
0
在線時間
466 小時
最后登錄
2019-10-11
5#
發表于 5 天前 | 只看該作者

樓主太厲害了!樓主,電影應該很好看我覺得中國高清論壇真是個好地方!
回復 支持 反對

使用道具 舉報

永恒神話

高清幣
19325
金錢
33235
鮮花
0
在線時間
2619 小時
最后登錄
2019-10-14
6#
發表于 5 天前 | 只看該作者
謝謝發片,辛苦了
回復 支持 反對

使用道具 舉報

人氣偶像

高清幣
143
金錢
1357
鮮花
0
在線時間
111 小時
最后登錄
2019-10-13
7#
發表于 5 天前 | 只看該作者
謝謝樓主,論壇給力
回復 支持 反對

使用道具 舉報

天王巨星

高清幣
49
金錢
2688
鮮花
0
在線時間
471 小時
最后登錄
2019-10-14
8#
發表于 5 天前 | 只看該作者
看似開放, 其實很保守。
回復 支持 反對

使用道具 舉報

人氣偶像

高清幣
244
金錢
404
鮮花
0
在線時間
57 小時
最后登錄
2019-10-14
9#
發表于 5 天前 | 只看該作者
謝謝樓主分享!
回復 支持 反對

使用道具 舉報

金雞獎主角

高清幣
1063
金錢
2531
鮮花
0
在線時間
390 小時
最后登錄
2019-10-12
10#
發表于 5 天前 | 只看該作者

其實我一直覺得樓主的品味不錯!呵呵!中國高清論壇太棒了!
回復 支持 反對

使用道具 舉報

懶得打字嘛,點擊右側快捷回復 【右側內容,后臺自定義】
您需要登錄后才可以回帖 登錄 | 立即注冊

本版積分規則

QQ|手機版|小黑屋|中國高清論壇 ( 黔ICP備16007815號-1 )

GMT+8, 2019-10-15 07:05 , Processed in 0.050223 second(s), 25 queries .

Powered by Discuz! X3.4

© 2001-2017 Comsenz Inc.

快速回復 返回頂部 返回列表
优乐彩