中國高清論壇

 找回密碼
 立即注冊
亞博
搜索
查看: 612|回復: 141
打印 上一主題 下一主題

[劇情片] 朽木 Deadwood.The.Movie.2019.MULTi.1080p.BluRay.DTS.x264-EXTREME 8.23 GiB

  [復制鏈接]

超級版主

高清幣
17321
金錢
40139
鮮花
0
在線時間
12257 小時
最后登錄
2019-10-14
跳轉到指定樓層
樓主
發表于 5 天前 | 只看該作者 回帖獎勵 |倒序瀏覽 |閱讀模式




◎譯  名 朽木/無法無天大電影(港)/化外國度電影版(臺)
◎片  名 Deadwood
◎年  代 2019
◎國  家 美國
◎類  別 劇情
◎語  言 英語
◎IMDb評分 9.3/10 from 397 users
◎IMDB鏈接 https://www.imdb.com/title/tt4943998/
◎片  長 1 h 50 min
◎導  演 丹尼爾·米納漢 Daniel Minahan
◎主  演 伊恩·麥柯肖恩 Ian McShane
       蒂莫西·奧利芬特 Timothy Olyphant
       金·迪肯斯 Kim Dickens
       布拉德·道里夫 Brad Dourif

◎簡  介

  HBO正式宣布電影版[朽木]將于10月開機,有望明春播出。去年便已傳出《朽木》編劇大衛·米爾契已完成了電影版劇本。劇版于2004年至2006年播出了三季,但粉絲始終沒有迎來最終的大結局,該劇故事圍繞美國疆界之外的一個礦鎮展開。此前有消息稱原劇眾卡司均有望回歸,包括伊恩·麥柯肖恩、蒂莫西·奧利芬特、約翰·浩克斯、莫莉·帕克、布拉德·道里夫等。
  1. General
  2. Unique ID                      : 144389394557160197195446432936637618527 (0x6CA062C7EA3092719EC60342B69DD95F)
  3. Complete name                  : D:\迅雷下載\[ Torrent9.cz ] Deadwood.The.Movie.2019.MULTi.1080p.BluRay.DTS.x264-EXTREME.mkv
  4. Format                         : Matroska
  5. Format version                 : Version 4
  6. File size                      : 8.23 GiB
  7. Duration                       : 1 h 50 min
  8. Overall bit rate               : 10.7 Mb/s
  9. Encoded date                   : UTC 2019-10-09 23:04:19
  10. Writing application            : mkvmerge v37.0.0 ('Leave It') 64-bit
  11. Writing library                : libebml v1.3.9 + libmatroska v1.5.2
  12. FileExtension_Invalid          : mkv mk3d mka mks

  13. Video
  14. ID                             : 4
  15. Format                         : AVC
  16. Format/Info                    : Advanced Video Codec
  17. Format profile                 : [email protected]
  18. Format settings                : CABAC / 4 Ref Frames
  19. Format settings, CABAC         : Yes
  20. Format settings, ReFrames      : 4 frames
  21. Codec ID                       : V_MPEG4/ISO/AVC
  22. Duration                       : 1 h 50 min
  23. Bit rate                       : 8 422 kb/s
  24. Width                          : 1 920 pixels
  25. Height                         : 960 pixels
  26. Display aspect ratio           : 2.000
  27. Frame rate mode                : Constant
  28. Frame rate                     : 23.976 (24000/1001) FPS
  29. Color space                    : YUV
  30. Chroma subsampling             : 4:2:0
  31. Bit depth                      : 8 bits
  32. Scan type                      : Progressive
  33. Bits/(Pixel*Frame)             : 0.191
  34. Stream size                    : 6.31 GiB (77%)
  35. Writing library                : x264 core 157 r2969 d4099dd
  36. Encoding settings              : cabac=1 / ref=4 / deblock=1:0:0 / analyse=0x3:0x133 / me=umh / subme=8 / psy=1 / psy_rd=1.00:0.00 / mixed_ref=1 / me_range=16 / chroma_me=1 / trellis=1 / 8x8dct=1 / cqm=0 / deadzone=21,11 / fast_pskip=0 / chroma_qp_offset=-2 / threads=12 / lookahead_threads=2 / sliced_threads=0 / nr=0 / decimate=1 / interlaced=0 / bluray_compat=0 / constrained_intra=0 / bframes=3 / b_pyramid=2 / b_adapt=1 / b_bias=0 / direct=1 / weightb=1 / open_gop=0 / weightp=2 / keyint=250 / keyint_min=23 / scenecut=40 / intra_refresh=0 / rc_lookahead=40 / rc=2pass / mbtree=1 / bitrate=8422 / ratetol=1.0 / qcomp=0.60 / qpmin=0 / qpmax=69 / qpstep=4 / cplxblur=20.0 / qblur=0.5 / ip_ratio=1.40 / aq=1:1.00
  37. Language                       : English
  38. Default                        : Yes
  39. Forced                         : No

  40. Audio #1
  41. ID                             : 1
  42. Format                         : DTS
  43. Format/Info                    : Digital Theater Systems
  44. Codec ID                       : A_DTS
  45. Duration                       : 1 h 50 min
  46. Bit rate mode                  : Constant
  47. Bit rate                       : 768 kb/s
  48. Channel(s)                     : 6 channels
  49. Channel layout                 : C L R Ls Rs LFE
  50. Sampling rate                  : 48.0 kHz
  51. Frame rate                     : 93.750 FPS (512 SPF)
  52. Bit depth                      : 24 bits
  53. Compression mode               : Lossy
  54. Stream size                    : 605 MiB (7%)
  55. Language                       : French
  56. Default                        : Yes
  57. Forced                         : No

  58. Audio #2
  59. ID                             : 5
  60. Format                         : DTS
  61. Format/Info                    : Digital Theater Systems
  62. Codec ID                       : A_DTS
  63. Duration                       : 1 h 50 min
  64. Bit rate mode                  : Constant
  65. Bit rate                       : 1 509 kb/s
  66. Channel(s)                     : 6 channels
  67. Channel layout                 : C L R Ls Rs LFE
  68. Sampling rate                  : 48.0 kHz
  69. Frame rate                     : 93.750 FPS (512 SPF)
  70. Bit depth                      : 24 bits
  71. Compression mode               : Lossy
  72. Stream size                    : 1.16 GiB (14%)
  73. Language                       : English
  74. Default                        : No
  75. Forced                         : No

  76. Text #1
  77. ID                             : 2
  78. Format                         : UTF-8
  79. Codec ID                       : S_TEXT/UTF8
  80. Codec ID/Info                  : UTF-8 Plain Text
  81. Title                          : Forced
  82. Language                       : French
  83. Default                        : Yes
  84. Forced                         : No

  85. Text #2
  86. ID                             : 3
  87. Format                         : UTF-8
  88. Codec ID                       : S_TEXT/UTF8
  89. Codec ID/Info                  : UTF-8 Plain Text
  90. Title                          : French
  91. Language                       : French
  92. Default                        : No
  93. Forced                         : No

  94. Menu
  95. 00:00:00.000                   : :Chapter 01
  96. 00:00:26.944                   : :Chapter 02
  97. 00:11:09.043                   : :Chapter 03
  98. 00:22:47.449                   : :Chapter 04
  99. 00:32:06.633                   : :Chapter 05
  100. 00:41:57.098                   : :Chapter 06
  101. 00:50:17.890                   : :Chapter 07
  102. 01:00:54.526                   : :Chapter 08
  103. 01:11:53.059                   : :Chapter 09
  104. 01:20:38.834                   : :Chapter 10
  105. 01:28:02.277                   : :Chapter 11
  106. 01:38:01.292                   : :Chapter 12
  107. 01:45:58.769                   : :Chapter 13

復制代碼

游客,如果您要查看本帖隱藏內容請回復,您還可以免扣高清幣免回復下載:http://www.ghpgnr.live/plugin.php?id=wyfaka_url:url

回復

使用道具 舉報

永恒神話

高清幣
40335
金錢
80219
鮮花
0
在線時間
6884 小時
最后登錄
2019-10-15
推薦
發表于 5 天前 | 只看該作者

樓主太厲害了!樓主,電影應該很好看我覺得中國高清論壇真是個好地方!
回復 支持 1 反對 0

使用道具 舉報

superstar

高清幣
6057
金錢
8755
鮮花
0
在線時間
466 小時
最后登錄
2019-10-11
推薦
發表于 5 天前 | 只看該作者

這個帖子不回對不起自己!我想我是一天也不能離開中國高清論壇
回復 支持 1 反對 0

使用道具 舉報

超級明星

高清幣
596
金錢
11423
鮮花
0
在線時間
2782 小時
最后登錄
2019-10-15
推薦
發表于 5 天前 | 只看該作者
樓主發貼辛苦了,謝謝樓主分享!我覺得中國高清論壇是注冊對了!
回復 支持 1 反對 0

使用道具 舉報

人氣偶像

高清幣
0
金錢
1100
鮮花
0
在線時間
246 小時
最后登錄
2019-10-15
推薦
發表于 5 天前 | 只看該作者
發貼辛苦了,謝謝樓主分享!
回復 支持 1 反對 0

使用道具 舉報

金雞獎主角

高清幣
104
金錢
3292
鮮花
0
在線時間
803 小時
最后登錄
2019-10-14
沙發
發表于 5 天前 | 只看該作者
樓主發貼辛苦了,謝謝樓主分享!我覺得中國高清論壇是注冊對了!
回復 支持 反對

使用道具 舉報

永恒神話

高清幣
19325
金錢
33235
鮮花
0
在線時間
2619 小時
最后登錄
2019-10-14
5#
發表于 5 天前 | 只看該作者
謝謝發片,辛苦了
回復 支持 反對

使用道具 舉報

人氣偶像

高清幣
143
金錢
1357
鮮花
0
在線時間
111 小時
最后登錄
2019-10-13
6#
發表于 5 天前 | 只看該作者
謝謝樓主,論壇給力
回復 支持 反對

使用道具 舉報

金雞獎主角

高清幣
1063
金錢
2531
鮮花
0
在線時間
390 小時
最后登錄
2019-10-12
7#
發表于 5 天前 | 只看該作者

其實我一直覺得樓主的品味不錯!呵呵!中國高清論壇太棒了!
回復 支持 反對

使用道具 舉報

永恒神話

高清幣
5633
金錢
16686
鮮花
0
在線時間
3149 小時
最后登錄
2019-10-15
8#
發表于 5 天前 | 只看該作者
感謝樓主分享高清資源!
回復 支持 反對

使用道具 舉報

superstar

高清幣
4585
金錢
8395
鮮花
0
在線時間
1017 小時
最后登錄
2019-10-14
9#
發表于 5 天前 | 只看該作者
謝謝樓主分享
回復 支持 反對

使用道具 舉報

超級明星

高清幣
111
金錢
9758
鮮花
0
在線時間
2421 小時
最后登錄
2019-10-14
10#
發表于 5 天前 | 只看該作者
多謝分享了
回復 支持 反對

使用道具 舉報

懶得打字嘛,點擊右側快捷回復 【右側內容,后臺自定義】
您需要登錄后才可以回帖 登錄 | 立即注冊

本版積分規則

QQ|手機版|小黑屋|中國高清論壇 ( 黔ICP備16007815號-1 )

GMT+8, 2019-10-15 07:15 , Processed in 0.049750 second(s), 25 queries .

Powered by Discuz! X3.4

© 2001-2017 Comsenz Inc.

快速回復 返回頂部 返回列表
优乐彩