中國高清論壇

 找回密碼
 立即注冊
亞博
搜索
查看: 2986|回復: 461
打印 上一主題 下一主題

[10bit] 3D肉蒲團之極樂寶鑒 2011.BluRay.1080p.x265.10bit.3Audio.FRDS 8.3G [百度云/BT]

  [復制鏈接]

高清發布組

高清幣
1713
金錢
3136
鮮花
0
在線時間
595 小時
最后登錄
2019-10-15
跳轉到指定樓層
樓主
發表于 6 天前 | 只看該作者 回帖獎勵 |倒序瀏覽 |閱讀模式
本帖最后由 zouzoup 于 2019-10-11 21:04 編輯



◎譯  名 3D Sex and Zen Extreme Ecstasy
◎片  名 3D肉蒲團之極樂寶鑒
◎年  代 2011
◎產  地 香港
◎類  別 劇情/古裝/愛情
◎語  言 國語/粵語
◎上映日期 2011年4月14日(香港) 4月16日(臺灣)
◎IMDb評分  5.6/10 from 6,417 users
◎IMDb鏈接 https://www.imdb.com/news/ni18937593
◎資源格式 MKV
◎片  長 113分鐘
◎導  演 孫立基
◎主  演 藍燕/葉山豪/松野井雅/周防雪子
◎簡  介
   明代才子未央生(葉山豪飾),自恃才高俊秀,認為人生苦短,應該追求人世間的性愛極樂。他邂逅了道學宿儒鐵扉道人的女兒鐵玉香(藍燕飾),二人一見鐘情,郎才女貌,未央生隨即拜堂成親,入贅為婿。然而,玉香自幼受乃父道學濡染,端莊持重,不諳床笫之事、魚水之歡;令一心追求性愛極樂的未央生感到味同嚼蠟。縱然彼此相愛,未央生亦始終為此大感遺憾。
   一次,未央生被引見造寧王的“絕世樓”,寧王(何華超飾)為人好大喜功,喜收集絕世珍藏,從字畫、古董珍品,到絕世奇才,均無一遺。未央生以其監賞奇才,被寧王招為上賓,被引領進入“極樂閣”。“極樂閣”可謂浮世中的酒池肉林-眾人沉溺色欲當中,做盡極盡荒唐之事;未央生置身其中,頓感血脈沸騰,眼界大開。寧王麾下攜有兩大絕色美女,包括床上功夫絕世的瑞珠(松野井雅飾)、冷艷但有強烈暴虐傾向的冬梅(周防雪子飾)。未央生得寧王賞賜,遂跟兩人夜夜癡纏,可是,卻在過程中發覺仰自己的陽具過于短小,自慚形穢。及后,未央生得遇極樂老人(雷凱欣飾)-一個容貌為美女,但實為年花甲、采陽補陰天下第一的方士。在其安排和指導下,未央生不單換上雄驢的性器,還練成了房中秘術。超人的床技令他成為天下第一的性技高手,終日肆意追求愛欲帶來的快感。快活不知時日過,玉香獨守空房,斯人獨憔悴,最后在父親及鄉眾的壓力下,選擇跟未央生仳離。玉香的離開令未央生更肆意縱情于色欲里。然而,一切皆非偶然,所有奇遇其實都是預先安排給他倆的殺身陷阱。





文件信息
  1. General
  2. Unique ID                         : 48710539165312731893943699211133020553 (0x24A54F0050E7A18650E6DBEED91A6989)
  3. Complete name                       3-D.Sex.and.Zen.Extreme.Ecstasy.2011.BluRay.1080p.x265.10bit.3Audio.MNHD-FRDS.mkv
  4. Format                            : Matroska
  5. Format version                      : Version 4
  6. File size                          : 8.34 GiB
  7. Duration                       : 1 h 52 min
  8. Overall bit rate                   : 10.6 Mb/s
  9. Encoded date                       : UTC 2018-10-15 12:10:05
  10. Writing application                   : mkvmerge v20.0.0 ('I Am The Sun') 64-bit
  11. Writing library                     : libebml v1.3.5 + libmatroska v1.4.8


  12. Video
  13. ID                            : 1
  14. Format                         : HEVC
  15. Format/Info                      : High Efficiency Video Coding
  16. Format profile                    : Main [email protected]@Main
  17. Codec ID                        : V_MPEGH/ISO/HEVC
  18. Duration                        : 1 h 52 min
  19. Bit rate                        : 9 065 kb/s
  20. Width                          : 1 920 pixels
  21. Height                         : 1 080 pixels
  22. Display aspect ratio                  : 16:9
  23. Frame rate mode                     : Constant
  24. Frame rate                         : 23.976 (24000/1001) FPS
  25. Color space                      : YUV
  26. Chroma subsampling                 : 4:2:0
  27. Bit depth                         : 10 bits
  28. Bits/(Pixel*Frame)                 : 0.182
  29. Stream size                      : 7.15 GiB (86%)
  30. Writing library                   : x265 2.8+1-478bfe2b7673:[Windows][GCC 7.3.0][64 bit] 10bit
  31. Encoding settings              : cpuid=1111039 / frame-threads=4 / numa-pools=16 / wpp / no-pmode / no-pme / no-psnr / no-ssim / log-level=2 / csv / csv-log-level=0 / input-csp=1 / input-res=1920x1080 / interlace=0 / total-frames=162448 / level-idc=0 / high-tier=1 / uhd-bd=0 / ref=5 / no-allow-non-conformance / no-repeat-headers / annexb / no-aud / no-hrd / info / hash=0 / no-temporal-layers / no-open-gop / min-keyint=1 / keyint=360 / gop-lookahead=0 / bframes=9 / b-adapt=2 / b-pyramid / bframe-bias=0 / rc-lookahead=60 / lookahead-slices=4 / scenecut=40 / radl=0 / no-intra-refresh / ctu=32 / min-cu-size=8 / rect / no-amp / max-tu-size=16 / tu-inter-depth=2 / tu-intra-depth=2 / limit-tu=4 / rdoq-level=1 / dynamic-rd=0.00 / ssim-rd / signhide / no-tskip / nr-intra=0 / nr-inter=0 / no-constrained-intra / no-strong-intra-smoothing / max-merge=3 / limit-refs=2 / limit-modes / me=3 / subme=5 / merange=25 / temporal-mvp / weightp / weightb / no-analyze-src-pics / deblock=-1:-1 / no-sao / no-sao-non-deblock / rd=4 / no-early-skip / rskip / no-fast-intra / no-tskip-fast / no-cu-lossless / b-intra / no-splitrd-skip / rdpenalty=1 / psy-rd=0.00 / psy-rdoq=5.00 / no-rd-refine / no-lossless / cbqpoffs=-2 / crqpoffs=-2 / rc=crf / crf=21.0 / qcomp=0.70 / qpstep=4 / stats-write=0 / stats-read=0 / ipratio=1.40 / pbratio=1.30 / aq-mode=1 / aq-strength=0.80 / cutree / zone-count=0 / no-strict-cbr / qg-size=16 / no-rc-grain / qpmax=69 / qpmin=0 / no-const-vbv / sar=0 / overscan=0 / videoformat=5 / range=0 / colorprim=1 / transfer=2 / colormatrix=2 / chromaloc=0 / display-window=0 / max-cll=0,0 / min-luma=0 / max-luma=1023 / log2-max-poc-lsb=8 / vui-timing-info / vui-hrd-info / slices=1 / no-opt-qp-pps / no-opt-ref-list-length-pps / no-multi-pass-opt-rps / scenecut-bias=0.05 / no-opt-cu-delta-qp / no-aq-motion / no-hdr / no-hdr-opt / no-dhdr10-opt / no-idr-recovery-sei / analysis-reuse-level=5 / scale-factor=0 / refine-intra=0 / refine-inter=0 / refine-mv=0 / no-limit-sao / ctu-info=0 / no-lowpass-dct / refine-mv-type=0 / copy-pic=1 / max-ausize-factor=1.0 / no-dynamic-refine / no-single-sei
  32. Language                        : Chinese
  33. Default                         : Yes
  34. Forced                         : No
  35. Color range                      : Limited
  36. Color primaries                   : BT.709


  37. Audio #1
  38. ID                               : 5
  39. Format                             : AC-3
  40. Format/Info                         : Audio Coding 3
  41. Commercial name                    : Dolby Digital
  42. Codec ID                         : A_AC3
  43. Duration                         : 1 h 52 min
  44. Bit rate mode                        : Constant
  45. Bit rate                           : 640 kb/s
  46. Channel(s)                          : 6 channels
  47. Channel layout                     : L R C LFE Ls Rs
  48. Sampling rate                     : 48.0 kHz
  49. Frame rate                         : 31.250 FPS (1536 SPF)
  50. Bit depth                          : 16 bits
  51. Compression mode                      : Lossy
  52. Stream size                         : 517 MiB (6%)
  53. Title                             : 粵語
  54. Language                           : Chinese
  55. Service kind                      : Complete Main
  56. Default                         : Yes
  57. Forced                            : No


  58. Audio #2
  59. ID                                : 6
  60. Format                             : AC-3
  61. Format/Info                          : Audio Coding 3
  62. Commercial name                       : Dolby Digital
  63. Codec ID                         : A_AC3
  64. Duration                         : 1 h 52 min
  65. Bit rate mode                      : Constant
  66. Bit rate                           : 640 kb/s
  67. Channel(s)                         : 6 channels
  68. Channel layout                     : L R C LFE Ls Rs
  69. Sampling rate                     : 48.0 kHz
  70. Frame rate                         : 31.250 FPS (1536 SPF)
  71. Bit depth                         : 16 bits
  72. Compression mode                   : Lossy
  73. Stream size                        : 517 MiB (6%)
  74. Title                            : 國語
  75. Language                       : Chinese
  76. Service kind                       : Complete Main
  77. Default                        : No
  78. Forced                         : No


  79. Audio #3
  80. ID: 7
  81. Format: AC-3
  82. Format/Info: Audio Coding 3
  83. Commercial name: Dolby Digital
  84. Codec ID: A_AC3
  85. Duration: 1 h 52 min
  86. Bit rate mode: Constant
  87. Bit rate: 192 kb/s
  88. Channel(s): 2 channels
  89. Channel layout: L R
  90. Sampling rate: 48.0 kHz
  91. Frame rate: 31.250 FPS (1536 SPF)
  92. Bit depth: 16 bits
  93. Compression mode: Lossy
  94. Stream size: 155 MiB (2%)
  95. Title: 粵導
  96. Language: Chinese
  97. Service kind: Complete Main
  98. Default: No
  99. Forced: No


  100. Text #1
  101. ID: 2
  102. Format: PGS
  103. Muxing mode: zlib
  104. Codec ID: S_HDMV/PGS
  105. Codec ID/Info: Picture based subtitle format used on BDs/HD-DVDs
  106. Duratio: 1 h 48 min
  107. Bit rate: 23.1 kb/s
  108. Count of elements: 2278
  109. Stream size: 17.9 MiB (0%)
  110. Title: 繁本
  111. Language: Chinese
  112. Default: Yes
  113. Forced: No


  114. Text #2
  115. ID: 3
  116. Format: PGS
  117. Muxing mode: zlib
  118. Codec ID: S_HDMV/PGS
  119. Codec ID/Info: Picture based subtitle format used on BDs/HD-DVDs
  120. Duration: 1 h 48 min
  121. Bit rate: 22.9 kb/s
  122. Count of elements: 2278
  123. Stream size: 17.8 MiB (0%)
  124. Title: 簡體
  125. Language: Chinese
  126. Default: No
  127. Forced: No


  128. Text #3
  129. ID: 4
  130. Format: PGS
  131. Muxing mode: zlib
  132. Codec ID: S_HDMV/PGS
  133. Codec ID/Info: Picture based subtitle format used on BDs/HD-DVDs
  134. Duration: 1 h 49 min
  135. Bit rate: 27.6 kb/s
  136. Count of elements: 2280
  137. Stream size: 21.7 MiB (0%)
  138. Title: 英文
  139. Language: English
  140. Default: No
  141. Forced: No


  142. Menu
  143. 00:00:00.000                   : en:Chapter 1
  144. 00:09:06.671                   : en:Chapter 2
  145. 00:18:46.500                   : en:Chapter 3
  146. 00:28:08.687                   : en:Chapter 4
  147. 00:34:59.222                   : en:Chapter 5
  148. 00:46:56.021                   : en:Chapter 6
  149. 00:55:05.885                   : en:Chapter 7
  150. 01:04:00.836                   : en:Chapter 8
  151. 01:16:21.535                   : en:Chapter 9
  152. 01:23:48.690                   : en:Chapter 10
  153. 01:33:22.054                   : en:Chapter 11
  154. 01:43:48.680                   : en:Chapter 12
復制代碼




















說明:該版為113分鐘版本,非128分鐘加長版,資源來源于網絡,非本人壓制。本人看后發現質量確實比較高,堪比原盤,因此分享下。另附簡繁英三語字幕,算是福利,原盤自帶字幕實在是太難看了。關于128分鐘加長版,日后再行發布。新添加了種子下載。


游客,本付費內容需要支付 2高清幣 才能瀏覽   

免回復、免扣高清幣、屏蔽廣告點擊此處開通VIP貴賓!

購買



游客,如果您要查看本帖隱藏內容請回復,您還可以免扣高清幣免回復下載:http://www.ghpgnr.live/plugin.php?id=wyfaka_url:url

3D肉蒲團之極樂寶鑒.3-D.Sex.and.Zen.Extreme.Ecstasy.2011.BluRay.1080p.x265.10bit..rar

44.39 KB, 下載次數: 117, 下載積分: 高清幣 -2

售價: 2 高清幣  [記錄]

回復

使用道具 舉報

金雞獎主角

高清幣
316
金錢
2995
鮮花
0
在線時間
458 小時
最后登錄
2019-10-14
推薦
發表于 6 天前 | 只看該作者
樓主發貼辛苦了,謝謝樓主分享!我覺得中國高清論壇是注冊對了!
回復 支持 1 反對 0

使用道具 舉報

知名藝人

高清幣
95
金錢
16
鮮花
0
在線時間
3 小時
最后登錄
2019-10-11
推薦
發表于 6 天前 | 只看該作者
樓主發貼辛苦了,謝謝樓主分享!我覺得中國高清論壇是注冊對了!
回復 支持 1 反對 0

使用道具 舉報

知名藝人

高清幣
67
金錢
231
鮮花
0
在線時間
16 小時
最后登錄
2019-10-13
推薦
發表于 6 天前 | 只看該作者

樓主太厲害了!樓主,電影應該很好看我覺得中國高清論壇真是個好地方!
回復 支持 1 反對 0

使用道具 舉報

金雞獎主角

高清幣
195
金錢
5299
鮮花
0
在線時間
1249 小時
最后登錄
2019-10-14
沙發
發表于 6 天前 | 只看該作者
樓主發貼辛苦了,謝謝樓主分享!我覺得中國高清論壇是注冊對了!
回復 支持 反對

使用道具 舉報

跑龍套

高清幣
0
金錢
6
鮮花
0
在線時間
0 小時
最后登錄
2019-10-9
板凳
發表于 6 天前 | 只看該作者

我看不錯噢 謝謝樓主!中國高清論壇越來越好!
回復 支持 反對

使用道具 舉報

人氣偶像

高清幣
24
金錢
1360
鮮花
0
在線時間
528 小時
最后登錄
2019-10-14
地板
發表于 6 天前 | 只看該作者

這東西我收了!謝謝樓主!中國高清論壇真好!
回復 支持 反對

使用道具 舉報

知名藝人

高清幣
14
金錢
209
鮮花
0
在線時間
21 小時
最后登錄
2019-10-9
5#
發表于 6 天前 | 只看該作者
樓主發貼辛苦了,謝謝樓主分享!我覺得中國高清論壇是注冊對了!
回復 支持 反對

使用道具 舉報

金雞獎主角

高清幣
6
金錢
4143
鮮花
0
在線時間
1075 小時
最后登錄
2019-10-14
6#
發表于 6 天前 | 只看該作者

這東西我收了!謝謝樓主!中國高清論壇真好!
回復 支持 反對

使用道具 舉報

影壇巨星

高清幣
407
金錢
9181
鮮花
0
在線時間
1266 小時
最后登錄
2019-10-14
7#
發表于 6 天前 | 只看該作者
謝謝老大。看一看回一回頂一頂。
回復 支持 反對

使用道具 舉報

超級明星

高清幣
1515
金錢
6312
鮮花
0
在線時間
2146 小時
最后登錄
2019-10-15
8#
發表于 6 天前 | 只看該作者

其實我一直覺得樓主的品味不錯!呵呵!中國高清論壇太棒了!
回復 支持 反對

使用道具 舉報

天王巨星

高清幣
54
金錢
2927
鮮花
0
在線時間
756 小時
最后登錄
2019-10-15
9#
發表于 6 天前 | 只看該作者
謝謝老大。看一看回一回頂一頂
回復 支持 反對

使用道具 舉報

天王巨星

高清幣
54
金錢
2927
鮮花
0
在線時間
756 小時
最后登錄
2019-10-15
10#
發表于 6 天前 | 只看該作者
謝謝老大。看一看回一回頂一頂
回復 支持 反對

使用道具 舉報

懶得打字嘛,點擊右側快捷回復 【右側內容,后臺自定義】
您需要登錄后才可以回帖 登錄 | 立即注冊

本版積分規則

QQ|手機版|小黑屋|中國高清論壇 ( 黔ICP備16007815號-1 )

GMT+8, 2019-10-15 07:17 , Processed in 0.490013 second(s), 28 queries .

Powered by Discuz! X3.4

© 2001-2017 Comsenz Inc.

快速回復 返回頂部 返回列表
优乐彩