中國高清論壇

 找回密碼
 立即注冊
亞博
搜索
查看: 523|回復: 77
打印 上一主題 下一主題

[演唱會] 2019江山如畫國慶音樂會.20190930.1080i.CCTV1.HDTV.H.264.DD5.1-FLTTH.ts 5.90G

  [復制鏈接]

高清發布組

高清幣
3382
金錢
4437
鮮花
5
在線時間
968 小時
最后登錄
2019-10-14
跳轉到指定樓層
樓主

  1. General
  2. ID                                       : 1 (0x1)
  3. Complete name                            : 2019江山如畫國慶音樂會.20190930.1080i.CCTV1.HDTV.H.264.DD5.1-FLTTH.ts
  4. Format                                   : MPEG-TS
  5. File size                                : 5.90 GiB
  6. Duration                                 : 1 h 40 min
  7. Overall bit rate mode                    : Variable
  8. Overall bit rate                         : 8 414 kb/s

  9. Video
  10. ID                                       : 256 (0x100)
  11. Menu ID                                  : 1 (0x1)
  12. Format                                   : AVC
  13. Format/Info                              : Advanced Video Codec
  14. Format profile                           : [email protected]
  15. Format settings                          : CABAC / 2 Ref Frames
  16. Format settings, CABAC                   : Yes
  17. Format settings, Reference frames        : 2 frames
  18. Format settings, GOP                     : M=3, N=12
  19. Codec ID                                 : 27
  20. Duration                                 : 1 h 40 min
  21. Bit rate                                 : 7 546 kb/s
  22. Width                                    : 1 920 pixels
  23. Height                                   : 1 080 pixels
  24. Display aspect ratio                     : 16:9
  25. Frame rate                               : 25.000 FPS
  26. Color space                              : YUV
  27. Chroma subsampling                       : 4:2:0
  28. Bit depth                                : 8 bits
  29. Scan type                                : Interlaced
  30. Scan type, store method                  : Separated fields
  31. Scan order                               : Top Field First
  32. Bits/(Pixel*Frame)                       : 0.146
  33. Stream size                              : 5.29 GiB (90%)

  34. Audio
  35. ID                                       : 257 (0x101)
  36. Menu ID                                  : 1 (0x1)
  37. Format                                   : AC-3
  38. Format/Info                              : Audio Coding 3
  39. Commercial name                          : Dolby Digital
  40. Codec ID                                 : 129
  41. Duration                                 : 1 h 40 min
  42. Bit rate mode                            : Constant
  43. Bit rate                                 : 448 kb/s
  44. Channel(s)                               : 6 channels
  45. Channel layout                           : L R C LFE Ls Rs
  46. Sampling rate                            : 48.0 kHz
  47. Frame rate                               : 31.250 FPS (1536 SPF)
  48. Bit depth                                : 16 bits
  49. Compression mode                         : Lossy
  50. Delay relative to video                  : -537 ms
  51. Stream size                              : 322 MiB (5%)
  52. Language                                 : English
  53. Service kind                             : Complete Main

  54. Menu
  55. ID                                       : 4096 (0x1000)
  56. Menu ID                                  : 1 (0x1)
  57. Duration                                 : 1 h 40 min
  58. List                                     : 256 (0x100) (AVC) / 257 (0x101) (AC-3, English)
  59. Language                                 :  / English
  60. Service name                             : CCTV1
  61. Service provider                         : BGCTV
  62. Service type                             : user defined

復制代碼


節目簡介:
    為慶祝新中國成立七十周年,音樂頻道特別策劃《2019江山如畫國慶音樂會》,旨為觀眾帶來技巧與藝術魅力相結合的視聽盛宴。音樂會陣容強大,現場群星閃耀、星光璀璨。殷秀梅、蔣大為、騰格爾、王麗達、鳳凰傳奇、吳碧霞、閻維文、王宏偉、平安、陳思思等眾多歌手藝術家共同攜手,與中國愛樂樂團一同為大家帶來一場超高水準的音樂會。

鏈接:https://pan.baidu.com/s/18RZPlG8nXNoaTj2y1VajqQ 提取碼:cspx


回復

使用道具 舉報

超級明星

高清幣
5
金錢
10816
鮮花
0
在線時間
1596 小時
最后登錄
2019-10-15
沙發
發表于 7 天前 | 只看該作者

這東西我收了!謝謝樓主!中國高清論壇真好!
回復 支持 反對

使用道具 舉報

永恒神話

高清幣
4460
金錢
20984
鮮花
0
在線時間
1533 小時
最后登錄
2019-10-15
板凳
發表于 7 天前 | 只看該作者

我看不錯噢 謝謝樓主!中國高清論壇越來越好!
回復 支持 反對

使用道具 舉報

金雞獎主角

高清幣
1704
金錢
3935
鮮花
0
在線時間
171 小時
最后登錄
2019-10-15
地板
發表于 7 天前 | 只看該作者

這個帖子不回對不起自己!我想我是一天也不能離開中國高清論壇
回復 支持 反對

使用道具 舉報

永恒神話

高清幣
13477
金錢
38352
鮮花
10
在線時間
2540 小時
最后登錄
2019-10-14
5#
發表于 7 天前 | 只看該作者

論壇不能沒有像樓主這樣的人才啊!我會一直支持中國高清論壇
回復 支持 反對

使用道具 舉報

跑龍套

高清幣
4
金錢
82
鮮花
0
在線時間
8 小時
最后登錄
2019-10-14
6#
發表于 7 天前 | 只看該作者
樓主發貼辛苦了,謝謝樓主分享!我覺得中國高清論壇是注冊對了!
回復 支持 反對

使用道具 舉報

金雞獎主角

高清幣
15
金錢
3512
鮮花
0
在線時間
1425 小時
最后登錄
2019-10-14
7#
發表于 7 天前 | 只看該作者
這東西我收了!謝謝樓主!中國高清論壇真好!
回復 支持 反對

使用道具 舉報

好萊塢明星

高清幣
256
金錢
7519
鮮花
0
在線時間
1682 小時
最后登錄
2019-10-14
8#
發表于 7 天前 | 只看該作者
樓主發貼辛苦了,謝謝樓主分享!我覺得中國高清論壇是注冊對了!
回復 支持 反對

使用道具 舉報

永恒神話

高清幣
10249
金錢
31900
鮮花
0
在線時間
2290 小時
最后登錄
2019-10-15
9#
發表于 7 天前 | 只看該作者
樓主發貼辛苦了,謝謝樓主分享!我覺得中國高清論壇是注冊對了!
回復 支持 反對

使用道具 舉報

人氣偶像

高清幣
87
金錢
621
鮮花
0
在線時間
141 小時
最后登錄
2019-10-15
10#
發表于 7 天前 | 只看該作者
樓主發貼辛苦了,謝謝樓主分享!我覺得中國高清論壇是注冊對了!
回復 支持 反對

使用道具 舉報

懶得打字嘛,點擊右側快捷回復 【右側內容,后臺自定義】
您需要登錄后才可以回帖 登錄 | 立即注冊

本版積分規則

QQ|手機版|小黑屋|中國高清論壇 ( 黔ICP備16007815號-1 )

GMT+8, 2019-10-15 07:06 , Processed in 0.046493 second(s), 23 queries .

Powered by Discuz! X3.4

© 2001-2017 Comsenz Inc.

快速回復 返回頂部 返回列表
优乐彩