中國高清論壇

 找回密碼
 立即注冊
亞博
搜索
查看: 341|回復: 46
打印 上一主題 下一主題

[其他] 向著偉大夢想(專題文藝演出).20191001.1080i.CCTV3.HDTV.H.264.DD5.1-FLTTH.ts 5.67G

[復制鏈接]

高清發布組

高清幣
3382
金錢
4437
鮮花
5
在線時間
968 小時
最后登錄
2019-10-14
跳轉到指定樓層
樓主

  1. General
  2. ID                                       : 1 (0x1)
  3. Complete name                            : 向著偉大夢想.20191001.1080i.CCTV3.HDTV.H.264.DD5.1-FLTTH.ts
  4. Format                                   : MPEG-TS
  5. File size                                : 5.67 GiB
  6. Duration                                 : 1 h 30 min
  7. Overall bit rate mode                    : Variable
  8. Overall bit rate                         : 8 953 kb/s

  9. Video
  10. ID                                       : 256 (0x100)
  11. Menu ID                                  : 1 (0x1)
  12. Format                                   : AVC
  13. Format/Info                              : Advanced Video Codec
  14. Format profile                           : [email protected]
  15. Format settings                          : CABAC / 3 Ref Frames
  16. Format settings, CABAC                   : Yes
  17. Format settings, Reference frames        : 3 frames
  18. Format settings, GOP                     : M=3, N=15
  19. Codec ID                                 : 27
  20. Duration                                 : 1 h 30 min
  21. Bit rate mode                            : Constant
  22. Bit rate                                 : 7 800 kb/s
  23. Width                                    : 1 920 pixels
  24. Height                                   : 1 080 pixels
  25. Display aspect ratio                     : 16:9
  26. Frame rate                               : 25.000 FPS
  27. Color space                              : YUV
  28. Chroma subsampling                       : 4:2:0
  29. Bit depth                                : 8 bits
  30. Scan type                                : Interlaced
  31. Scan type, store method                  : Separated fields
  32. Scan order                               : Top Field First
  33. Bits/(Pixel*Frame)                       : 0.150
  34. Stream size                              : 5.10 GiB (90%)
  35. Color range                              : Limited
  36. Color primaries                          : BT.709
  37. Transfer characteristics                 : BT.709
  38. Matrix coefficients                      : BT.709

  39. Audio
  40. ID                                       : 257 (0x101)
  41. Menu ID                                  : 1 (0x1)
  42. Format                                   : AC-3
  43. Format/Info                              : Audio Coding 3
  44. Commercial name                          : Dolby Digital
  45. Codec ID                                 : 129
  46. Duration                                 : 1 h 30 min
  47. Bit rate mode                            : Constant
  48. Bit rate                                 : 448 kb/s
  49. Channel(s)                               : 6 channels
  50. Channel layout                           : L R C LFE Ls Rs
  51. Sampling rate                            : 48.0 kHz
  52. Frame rate                               : 31.250 FPS (1536 SPF)
  53. Bit depth                                : 16 bits
  54. Compression mode                         : Lossy
  55. Delay relative to video                  : -180 ms
  56. Stream size                              : 290 MiB (5%)
  57. Language                                 : English
  58. Service kind                             : Complete Main

  59. Menu
  60. ID                                       : 4096 (0x1000)
  61. Menu ID                                  : 1 (0x1)
  62. Duration                                 : 1 h 30 min
  63. List                                     : 256 (0x100) (AVC) / 257 (0x101) (AC-3, English)
  64. Language                                 :  / English
  65. Service name                             : CCTV3
  66. Service provider                         : BGCTV
  67. Service type                             : user defined

復制代碼
節目簡介:
    在慶祝中華人民共和國成立70周年閱兵部隊受閱之際,解放軍新聞傳播中心廣播電視部和央視綜藝頻道,組織了閻維文、蔡國慶、吳京、張譯、衛晨霞、李思思、尼格買提、周煒、白雪、霍勇、梁召今、王瑩、平安、烏蘭圖雅、云飛等軍地文藝工作者,攜手曾參加過往屆閱兵的受閱老兵代表,帶著全國人民的親切問候和美好祝愿,深入閱兵訓練基地,帶去了一臺精彩紛呈的《向著偉大夢想》慰問文藝演出。該節目于10月1日當天在CCTV-7國防軍事頻道和CCTV-3綜藝頻道播出。

鏈接:https://pan.baidu.com/s/1KguCfcKQsu1Fzqd9ccL8xw 提取碼:vif7

回復

使用道具 舉報

超級明星

高清幣
5
金錢
10816
鮮花
0
在線時間
1596 小時
最后登錄
2019-10-15
沙發
發表于 7 天前 | 只看該作者
樓主發貼辛苦了,謝謝樓主分享!我覺得中國高清論壇是注冊對了!
回復 支持 反對

使用道具 舉報

跑龍套

高清幣
4
金錢
82
鮮花
0
在線時間
8 小時
最后登錄
2019-10-14
板凳
發表于 7 天前 | 只看該作者
樓主發貼辛苦了,謝謝樓主分享!我覺得中國高清論壇是注冊對了!
回復 支持 反對

使用道具 舉報

永恒神話

高清幣
13483
金錢
38362
鮮花
10
在線時間
2540 小時
最后登錄
2019-10-15
地板
發表于 7 天前 | 只看該作者

樓主,我太崇拜你了!我想我是一天也不能離開中國高清論壇
回復 支持 反對

使用道具 舉報

永恒神話

高清幣
10251
金錢
31902
鮮花
0
在線時間
2290 小時
最后登錄
2019-10-15
5#
發表于 7 天前 | 只看該作者
樓主發貼辛苦了,謝謝樓主分享!我覺得中國高清論壇是注冊對了!
回復 支持 反對

使用道具 舉報

superstar

高清幣
4550
金錢
12553
鮮花
0
在線時間
1179 小時
最后登錄
2019-10-14
6#
發表于 7 天前 | 只看該作者

這東西我收了!謝謝樓主!中國高清論壇真好!
回復 支持 反對

使用道具 舉報

金雞獎主角

高清幣
36
金錢
3693
鮮花
0
在線時間
818 小時
最后登錄
2019-10-14
7#
發表于 7 天前 | 只看該作者
樓主發貼辛苦了,謝謝樓主分享!
回復 支持 反對

使用道具 舉報

金雞獎主角

高清幣
1399
金錢
4989
鮮花
0
在線時間
488 小時
最后登錄
2019-10-15
8#
發表于 7 天前 | 只看該作者
樓主發貼辛苦了,謝謝樓主分享!
回復 支持 反對

使用道具 舉報

人氣偶像

高清幣
106
金錢
1838
鮮花
0
在線時間
348 小時
最后登錄
2019-10-13
9#
發表于 7 天前 | 只看該作者

我看不錯噢 謝謝樓主!中國高清論壇越來越好!
回復 支持 反對

使用道具 舉報

金雞獎主角

高清幣
699
金錢
3558
鮮花
0
在線時間
1000 小時
最后登錄
2019-10-14
10#
發表于 7 天前 | 只看該作者
樓主發貼辛苦了,謝謝樓主分享!我覺得中國高清論壇是注冊對了!
回復 支持 反對

使用道具 舉報

懶得打字嘛,點擊右側快捷回復 【右側內容,后臺自定義】
您需要登錄后才可以回帖 登錄 | 立即注冊

本版積分規則

QQ|手機版|小黑屋|中國高清論壇 ( 黔ICP備16007815號-1 )

GMT+8, 2019-10-15 07:15 , Processed in 0.046162 second(s), 23 queries .

Powered by Discuz! X3.4

© 2001-2017 Comsenz Inc.

快速回復 返回頂部 返回列表
优乐彩