中國高清論壇

 找回密碼
 立即注冊
亞博
搜索
查看: 284|回復: 41
打印 上一主題 下一主題

[其他] 禮贊最美奮斗者.20191002.1080i.CCTV1.HDTV.H.264.DD5.1-FLTTH.ts 5.13G

[復制鏈接]

高清發布組

高清幣
3382
金錢
4437
鮮花
5
在線時間
968 小時
最后登錄
2019-10-14
跳轉到指定樓層
樓主

  1. General
  2. ID                                       : 24 (0x18)
  3. Complete name                            : 禮贊最美奮斗者.20191002.1080i.CCTV1.HDTV.H.264.DD5.1-FLTTH.ts
  4. Format                                   : MPEG-TS
  5. File size                                : 5.13 GiB
  6. Duration                                 : 1 h 31 min
  7. Overall bit rate mode                    : Variable
  8. Overall bit rate                         : 8 034 kb/s

  9. Video
  10. ID                                       : 6010 (0x177A)
  11. Menu ID                                  : 601 (0x259)
  12. Format                                   : AVC
  13. Format/Info                              : Advanced Video Codec
  14. Format profile                           : [email protected]
  15. Format settings                          : CABAC / 2 Ref Frames
  16. Format settings, CABAC                   : Yes
  17. Format settings, Reference frames        : 2 frames
  18. Format settings, GOP                     : M=3, N=12
  19. Codec ID                                 : 27
  20. Duration                                 : 1 h 31 min
  21. Bit rate                                 : 7 184 kb/s
  22. Width                                    : 1 920 pixels
  23. Height                                   : 1 080 pixels
  24. Display aspect ratio                     : 16:9
  25. Frame rate                               : 25.000 FPS
  26. Color space                              : YUV
  27. Chroma subsampling                       : 4:2:0
  28. Bit depth                                : 8 bits
  29. Scan type                                : Interlaced
  30. Scan type, store method                  : Separated fields
  31. Scan order                               : Top Field First
  32. Bits/(Pixel*Frame)                       : 0.139
  33. Stream size                              : 4.59 GiB (89%)

  34. Audio
  35. ID                                       : 6011 (0x177B)
  36. Menu ID                                  : 601 (0x259)
  37. Format                                   : AC-3
  38. Format/Info                              : Audio Coding 3
  39. Commercial name                          : Dolby Digital
  40. Codec ID                                 : 6
  41. Duration                                 : 1 h 31 min
  42. Bit rate mode                            : Constant
  43. Bit rate                                 : 448 kb/s
  44. Channel(s)                               : 6 channels
  45. Channel layout                           : L R C LFE Ls Rs
  46. Sampling rate                            : 48.0 kHz
  47. Frame rate                               : 31.250 FPS (1536 SPF)
  48. Bit depth                                : 16 bits
  49. Compression mode                         : Lossy
  50. Delay relative to video                  : -201 ms
  51. Stream size                              : 293 MiB (6%)
  52. Language                                 : English
  53. Service kind                             : Complete Main

  54. Menu
  55. ID                                       : 6015 (0x177F)
  56. Menu ID                                  : 601 (0x259)
  57. Duration                                 : 1 h 31 min
  58. List                                     : 6010 (0x177A) (AVC) / 6011 (0x177B) (AC-3, English)
  59. Language                                 :  / English
  60. Service name                             : CCTV1綜合高清
  61. Service provider                         : BGCTV
  62. Service type                             : user defined

復制代碼
節目簡介:
    70年風雨兼程,70年滄桑巨變,回首新中國的非凡歷程,那些輝煌的成就總被一些閃亮的名字照亮。70年來,無數奮斗者兢兢業業、腳踏實地,扎根基層、奉獻人民,在平凡崗位上創造非凡業績,為國家富強、民族振興、社會和諧、人民幸福做出了不平凡的貢獻。他們是民族的脊梁,是時代的先鋒,是祖國的驕傲,是最美的奮斗者!

鏈接:https://pan.baidu.com/s/1ABUh4EkINS__cyhrxRXE2Q 提取碼:84k2

回復

使用道具 舉報

永恒神話

高清幣
13477
金錢
38356
鮮花
10
在線時間
2540 小時
最后登錄
2019-10-15
沙發
發表于 7 天前 | 只看該作者

這東西我收了!謝謝樓主!中國高清論壇真好!
回復 支持 反對

使用道具 舉報

跑龍套

高清幣
4
金錢
82
鮮花
0
在線時間
8 小時
最后登錄
2019-10-14
板凳
發表于 7 天前 | 只看該作者
樓主發貼辛苦了,謝謝樓主分享!我覺得中國高清論壇是注冊對了!
回復 支持 反對

使用道具 舉報

人氣偶像

高清幣
87
金錢
621
鮮花
0
在線時間
141 小時
最后登錄
2019-10-15
地板
發表于 7 天前 | 只看該作者
樓主發貼辛苦了,謝謝樓主分享!我覺得中國高清論壇是注冊對了!
回復 支持 反對

使用道具 舉報

永恒神話

高清幣
10251
金錢
31902
鮮花
0
在線時間
2290 小時
最后登錄
2019-10-15
5#
發表于 7 天前 | 只看該作者
樓主發貼辛苦了,謝謝樓主分享!我覺得中國高清論壇是注冊對了!
回復 支持 反對

使用道具 舉報

superstar

高清幣
4550
金錢
12553
鮮花
0
在線時間
1179 小時
最后登錄
2019-10-14
6#
發表于 7 天前 | 只看該作者

我看不錯噢 謝謝樓主!中國高清論壇越來越好!
回復 支持 反對

使用道具 舉報

金雞獎主角

高清幣
36
金錢
3693
鮮花
0
在線時間
818 小時
最后登錄
2019-10-14
7#
發表于 7 天前 | 只看該作者
樓主發貼辛苦了,謝謝樓主分享!
回復 支持 反對

使用道具 舉報

金雞獎主角

高清幣
1399
金錢
4989
鮮花
0
在線時間
488 小時
最后登錄
2019-10-15
8#
發表于 7 天前 | 只看該作者
樓主發貼辛苦了,謝謝樓主分享!
回復 支持 反對

使用道具 舉報

人氣偶像

高清幣
106
金錢
1838
鮮花
0
在線時間
348 小時
最后登錄
2019-10-13
9#
發表于 7 天前 | 只看該作者

這東西我收了!謝謝樓主!中國高清論壇真好!
回復 支持 反對

使用道具 舉報

影壇巨星

高清幣
2242
金錢
8066
鮮花
0
在線時間
2478 小時
最后登錄
2019-10-14
10#
發表于 7 天前 | 只看該作者
樓主發貼辛苦了,謝謝樓主分享!我覺得中國高清論壇是注冊對了!
回復 支持 反對

使用道具 舉報

懶得打字嘛,點擊右側快捷回復 【右側內容,后臺自定義】
您需要登錄后才可以回帖 登錄 | 立即注冊

本版積分規則

QQ|手機版|小黑屋|中國高清論壇 ( 黔ICP備16007815號-1 )

GMT+8, 2019-10-15 07:08 , Processed in 0.045666 second(s), 23 queries .

Powered by Discuz! X3.4

© 2001-2017 Comsenz Inc.

快速回復 返回頂部 返回列表
优乐彩